Official Video: Roger Waters + David Gilmour: Comfortably Numb, Live, O2 Arena 2011

Estándar

DATOS TÉCNICOS DE LA GRABACIÓN

General

Name : Roger Waters + David Gilmour_ Comfortably Numb, Live, O2 Are.mp4
Format : MPEG-4
Format profile : Base Media / Version 2
Codec ID : mp42
File size : 74.8 MiB
Duration : 8mn 17s
Overall bit rate : 1 261 Kbps
Encoded date : UTC 2011-05-14 11:22:06
Tagged date : UTC 2011-05-14 11:22:06
gsst : 0
gstd : 497680
gssd : BADC20345HH1305472345488125
gshh : v5.lscache6.c.youtube.com

Video

ID : 1
Format : AVC
Format/Info : Advanced Video Codec
Format profile : High@L3.1
Format settings, CABAC : Yes
Format settings, ReFrames : 1 frame
Codec ID : avc1
Codec ID/Info : Advanced Video Coding
Duration : 8mn 17s
Bit rate mode : Variable
Bit rate : 1 104 Kbps
Maximum bit rate : 3 648 Kbps
Width : 1 280 pixels
Height : 720 pixels
Display aspect ratio : 16:9
Frame rate mode : Constant
Frame rate : 25.000 fps
Color space : YUV
Chroma subsampling : 4:2:0
Bit depth : 8 bits
Scan type : Progressive
Bits/(Pixel*Frame) : 0.048
Stream size : 65.5 MiB (88%)
Tagged date : UTC 2011-05-14 11:22:09

Audio

ID : 2
Format : AAC
Format/Info : Advanced Audio Codec
Format profile : LC
Codec ID : 40
Duration : 8mn 17s
Bit rate mode : Variable
Bit rate : 152 Kbps
Maximum bit rate : 208 Kbps
Channel(s) : 2 channels
Channel positions : Front: L R
Sampling rate : 44.1 KHz
Compression mode : Lossy
Stream size : 9.01 MiB (12%)
Title : (C) 2007 Google Inc. v08.13.2007.
Encoded date : UTC 2011-05-14 11:22:08
Tagged date : UTC 2011-05-14 11:22:09

Archivo MediaInfo: Pink floyd.txt

Responder

Introduce tus datos o haz clic en un icono para iniciar sesión:

Logo de WordPress.com

Estás comentando usando tu cuenta de WordPress.com. Cerrar sesión / Cambiar )

Imagen de Twitter

Estás comentando usando tu cuenta de Twitter. Cerrar sesión / Cambiar )

Foto de Facebook

Estás comentando usando tu cuenta de Facebook. Cerrar sesión / Cambiar )

Google+ photo

Estás comentando usando tu cuenta de Google+. Cerrar sesión / Cambiar )

Conectando a %s